Шерлок: Дело зла / Sherlock (Грэхэм Тикстон / Graham Theakston) [2002, США, Румыния, Великобритания, боевик, триллер, драма, криминал, детектив, HDRip] VO (Клерик (PiratVoice)) + Sub Rus + Original Eng

Ответить на тему
Статистика раздачи [Обновить пиров]
Размер:  818 MB   |    Зарегистрирован:  6 дней   |    Скачан:  0 раз
Сидеров:  1  [  0 KB/s  ]   Подробная статистика скачивающих
 
   
 
 
 
Автор Сообщение

lapidamuerst.info

Создавать темы 14-Фев-2018 01:49

[Цитировать]

Шерлок: Дело зла / Sherlock
Страна: США, Румыния, Великобритания
Жанр: боевик, триллер, драма, криминал, детектив
Год выхода: 2002
Продолжительность: 01:29:50
Перевод: Одноголосый закадровый (любительский) Клерик (PiratVoice)
Субтитры: русские
Оригинальная аудиодорожка: английский
Режиссер: Грэхэм Тикстон
В ролях: Джеймс Д’Арси, Роджер Морлидж, Габриель Анвар, Винсент Д’Онофрио, Николас Гекс, Питер-Хьюго Дэйли, Ричард Э. Грант
Описание: Шерлок Холмс вновь гонится за профессором Мориарти и стреляет в него. Пуля смертельно ранит. Однако труп профессора не найден, т. к. он попадает в канализацию. Холмс продолжает расследование убийств с мистером Ватсоном и выясняет, что Мориарти жив! Но как доказать это инспектору Лейстреду?
Сэмпл: http://sendfile.su/1398547
Раздавать могу только с 00:15 до 07:45 по Москве. Прошу отнестись с пониманием.
Качество видео: HDRip
Формат файла: AVI
Видео: Xvid MPEG-4, 720x416, 29.97fps, 964kbps
Аудио: AC3 Dolby Digital, 48 kHz, 192kbps, 2 channels - rus VO
Аудио 2: MP3, 48 kHz, 128kbps, 2 channels - оригинал
Формат файла субтитров: softsub (SRT)
Доп. информация о субтитрах: Внешним файлом

MediaInfo

General
Format : AVIFormat/Info : Audio Video InterleaveFormat profile : OpenDMLFormat settings : recFile size : 747 MiBDuration : 1 h 29 minOverall bit rate : 1 163 kb/sWriting application : AVI-Mux GUI 1.17.8.3, Feb 16 201019:42:50
VideoID : 0Format : MPEG-4 VisualFormat profile : Advanced [email protected] settings, BVOP : 1Format settings, QPel : NoFormat settings, GMC : No warppointsFormat settings, Matrix : CustomCodec ID : XVIDCodec ID/Hint : XviDDuration : 1 h 29 minBit rate : 964 kb/sWidth : 720 pixelsHeight : 416 pixelsDisplay aspect ratio : 1.731Frame rate : 29.970 (30000/1001) FPSColor space : YUVChroma subsampling : 4:2:0Bit depth : 8 bitsScan type : ProgressiveCompression mode : LossyBits/(Pixel*Frame) : 0.107Stream size : 620 MiB (83%)Writing library : XviD 1.2.1 (UTC 2008-12-04)
AudioID : 1Format : AC-3Format/Info : Audio Coding 3Format settings, Endianness : BigCodec ID : 2000Duration : 1 h 29 minBit rate mode : ConstantBit rate : 192 kb/sChannel(s) : 2 channelsChannel positions : Front: L RSampling rate : 48.0 kHzFrame rate : 31.250 FPS (1536 SPF)Bit depth : 16 bitsCompression mode : LossyStream size : 123 MiB (17%)Alignment : Aligned on interleavesInterleave, duration : 64 ms (1.92 video frames)Interleave, preload duratio : 192 msService kind : Complete Main

Скриншот c названием фильма

Скриншоты



[lapidamuerst.info]_t_5520152.torrent
Торрент: Зарегистрирован ·  [ 2018-02-14 01:49 ] ·  92b5ba47aa7b1d9df1ef7a194d139046b7120793

17 KB

Статус: проверено
Скачан: 0 раз
Размер: 818 MB
Оценка: 
(Голосов: 0)
Сказали спасибо: 0  Спасибо
Похожие темы
[Профиль]    [ЛС]
Показать сообщения:    
Ответить на тему

Текущее время: Сегодня 05:11

Часовой пояс: GMT + 7



Вы не можете начинать темы
Вы не можете отвечать на сообщения
Вы не можете редактировать свои сообщения
Вы не можете удалять свои сообщения
Вы не можете голосовать в опросах
Вы не можете прикреплять файлы к сообщениям
Вы можете скачивать файлы